#TITLE:Can you give me?;
#SUBTITLE:Initiate;
#ARTIST:Dream Girls;
#TITLETRANSLIT:;
#SUBTITLETRANSLIT:;
#ARTISTTRANSLIT:;
#CREDIT:;
#BANNER:cugm-bn.png;
#BACKGROUND:cugm-bg.jpg;
#LYRICSPATH:;
#CDTITLE:cdtitle.png;
#MUSIC:cugm.mp3;
#OFFSET:-0.440;
#SAMPLESTART:66.680;
#SAMPLELENGTH:14.840;
#SELECTABLE:YES;
#DISPLAYBPM:134.000;
#BPMS:0.000=134.000,3.500=268.000,4.000=134.000,39.000=268.000,40.000=134.000,43.000=268.000,44.000=134.000,51.000=268.000,52.000=134.000,55.000=268.000,55.333=67.000,55.500=134.000,59.000=268.000,59.333=67.000,59.500=134.000,64.000=268.000,66.000=134.000,71.000=268.000,71.333=67.000,71.500=134.000,75.000=268.000,75.333=67.000,75.500=134.000,79.000=268.000,80.333=67.000,80.500=134.000,80.625=268.000,81.000=268.000,81.333=67.000,81.500=134.000,81.625=268.000,82.667=67.000,83.000=134.000,84.000=268.000,98.000=67.000,98.333=268.000,99.000=134.000,100.000=268.000,101.500=134.000,102.000=67.000,102.333=268.000,103.000=134.000,104.000=268.000,105.500=134.000,106.000=268.000,113.667=67.000,114.333=268.000,115.000=134.000,116.000=268.000,117.000=134.000,118.000=268.000,119.000=134.000,120.000=268.000,121.000=134.000,122.000=268.000,123.000=134.000,124.000=268.000,124.500=67.000,124.750=268.000,125.250=67.000,125.500=134.000,128.000=268.000,130.000=67.000,130.333=268.000,131.000=134.000,132.000=268.000,133.000=134.000,134.000=67.000,134.333=268.000,135.000=134.000,136.000=268.000,137.000=134.000,139.000=67.000,139.333=268.000,140.000=134.000,143.000=67.000,143.333=268.000,146.000=134.000,151.000=268.000,151.333=67.000,151.500=134.000,155.000=268.000,155.333=67.000,155.500=134.000,167.000=268.000,167.333=67.000,167.500=134.000,171.000=268.000,171.333=67.000,171.500=134.000,176.000=268.000,178.000=67.000,178.333=268.000,179.000=134.000,183.000=268.000,183.333=67.000,183.500=134.000,187.000=268.000,187.333=67.000,187.500=134.000,192.000=268.000,194.000=134.000,199.000=268.000,199.333=67.000,199.500=134.000,200.000=268.000,200.667=67.000,201.000=134.000,203.000=268.000,203.333=67.000,203.500=134.000,207.000=268.000,207.667=67.000,208.000=268.000,211.333=67.000,212.000=268.000,212.500=67.000,212.750=268.000,213.250=67.000,213.500=134.000,214.000=268.000,214.667=67.000,215.000=134.000,216.000=268.000,216.500=67.000,216.750=268.000,217.250=67.000,217.500=134.000,220.000=67.000,220.250=268.000,221.250=67.000,221.500=134.000,228.000=67.000,228.250=268.000,228.750=67.000,229.000=268.000,229.500=134.000,230.000=268.000,231.000=134.000,232.000=67.000,232.250=268.000,233.250=67.000,233.500=134.000,234.000=268.000,234.667=67.000,235.000=134.000,236.000=67.000,236.333=268.000,237.000=134.000,242.000=67.000,242.333=268.000,243.000=134.000,244.000=268.000,244.500=67.000,245.000=268.000,245.500=134.000,248.000=67.000,248.250=268.000,249.250=67.000,249.500=134.000,256.000=268.000,259.333=67.000,260.000=134.000,268.000=67.000,268.250=268.000,269.250=67.000,269.500=134.000,274.000=67.000,274.333=268.000,275.000=134.000,276.000=268.000,277.000=134.000,278.000=67.000,278.333=268.000,279.000=134.000,280.000=268.000,281.000=134.000,283.000=67.000,283.333=268.000,284.000=134.000,287.000=67.000,287.333=268.000,290.000=134.000,295.000=268.000,295.333=67.000,295.500=134.000,299.000=268.000,299.333=67.000,299.500=134.000,311.000=268.000,311.333=67.000,311.500=134.000,315.000=268.000,315.333=67.000,315.500=134.000,319.000=67.000,319.333=268.000,320.000=268.000,322.000=999.000;
#STOPS:3.750=0.112
,39.500=0.224
,43.000=0.224
,51.000=0.224
,64.250=0.112
,64.750=0.112
,65.250=0.112
,65.750=0.112
,79.500=0.224
,80.813=0.084
,81.813=0.084
,84.000=0.224
,85.000=0.224
,86.000=0.224
,87.000=0.224
,88.000=0.224
,89.000=0.224
,90.000=0.224
,91.000=0.224
,92.000=0.224
,93.000=0.224
,94.000=0.224
,95.000=0.224
,96.000=0.224
,97.000=0.224
,100.375=0.168
,101.125=0.168
,104.375=0.168
,105.125=0.168
,106.000=0.224
,107.000=0.224
,108.000=0.224
,109.000=0.224
,110.000=0.224
,111.000=0.224
,112.000=0.224
,116.000=0.224
,118.000=0.224
,120.000=0.224
,122.000=0.224
,128.333=0.112
,128.667=0.112
,129.333=0.112
,129.667=0.112
,132.500=0.224
,136.000=0.224
,144.250=0.112
,144.750=0.112
,145.250=0.112
,145.750=0.112
,176.125=0.056
,176.375=0.056
,176.625=0.056
,176.875=0.056
,177.125=0.056
,177.375=0.056
,177.625=0.056
,177.875=0.056
,192.125=0.056
,192.375=0.056
,192.625=0.056
,192.875=0.056
,193.125=0.056
,193.375=0.056
,193.625=0.056
,193.875=0.056
,208.250=0.112
,208.750=0.112
,209.250=0.112
,209.750=0.112
,230.000=0.224
,256.000=0.224
,257.500=0.224
,276.000=0.224
,280.000=0.224
,288.125=0.056
,288.375=0.056
,288.625=0.056
,288.875=0.056
,289.125=0.056
,289.375=0.056
,289.625=0.056
,289.875=0.056
,320.125=0.056
,320.375=0.056
,320.625=0.056
,320.875=0.056
,321.125=0.056
,321.375=0.056
,321.625=0.056
,321.875=0.056
;
#BGCHANGES:;
// cache tags:
#FIRSTBEAT:3.000;
#LASTBEAT:336.000;
#SONGFILENAME:Songs/Initiate/givemeok/cugm.sm;
#HASMUSIC:1;
#HASBANNER:1;
#MUSICLENGTH:146.554;
// end cache tags

//---------------dance-single - Initiate----------------
#NOTES:
     dance-single:
     Initiate:
     Hard:
     7:
     0.934,1.000,1.000,0.130,0.870,557.000,322.000,19.000,684.000,68.000:
0000
0000
0000
0000
0000
0000
0000
0000
0000
0000
0000
0000
0001
0000
0010
0MM0
,
1001
00M0
1000
0100
0011
1010
0M00
0011
,
00M0
0100
0001
0110
0101
1010
0M00
00M0
,
1001
0010
0100
0010
1001
1001
0010
0001
,
1010
1010
0001
0110
0021
0M00
0100
0100
,
1131
0010
0100
0001
2010
0010
00M0
00M0
,
0111
00M0
0010
00M0
0111
0010
30M0
00M0
,
11M0
0000
0000
0000
01M1
0000
0000
0000
1M01
0000
0010
0010
1001
0000
0001
0000
,
1M11
0000
0000
0000
0000
0000
0001
0000
0000
0000
0000
0000
0101
0000
0000
0000
0000
0000
0001
0000
0000
0000
0000
0000
0101
0000
0000
1000
0000
0000
0001
0000
0000
1000
0000
0000
0001
0000
0100
0000
0010
0000
0100
0000
0010
0000
0100
0000
,
1001
0100
0110
0001
1010
0100
1010
0M00
,
1010
1000
1001
0110
0101
1010
0101
0M00
,
1010
0100
0101
0010
1010
0100
01M0
1001
,
1011
0000
0000
1110
0000
0000
0001
0000
0000
1010
0000
0000
1100
0001
1000
0001
1000
0001
0200
0000
0000
0000
0000
0000
,
1301
0110
1100
0010
1001
1100
0100
010M
,
0011
0001
0100
0010
0110
0011
1000
100M
,
1100
0000
0100
0000
0110
0000
0001
0000
1100
0000
0010
0000
1100
0000
0001
0010
,
1101
0000
1010
0000
1011
0000
0110
0000
2001
0000
0010
0100
3010
0001
0010
0000
,
0100
0010
0011
0100
0101
0010
0101
0M10
,
1001
0010
1010
0001
1010
0100
1100
1M00
,
1000
0010
1000
0100
0011
0010
1100
0M00
,
1011
1010
1110
0101
1011
0M00
1000
0100
,
1101
00M0
1100
00M0
1100
00M0
1100
00M0
,
0101
00M0
0101
00M0
0101
00M0
0101
00M0
,
1020
0M00
0101
0M00
1130
0000
1010
0000
,
1001
0000
0M00
0000
1010
0000
00M0
0000
0101
M0M0
M0M0
M0M0
0100
0000
0010
0000
,
1100
00MM
M00M
0110
M00M
MMMM
0100
0000
0011
0000
0000
0000
0101
0000
0010
0000
,
1100
00MM
M00M
M11M
M00M
0MMM
1000
0000
0011
0000
0M00
0000
0011
0000
000M
0000
,
1100
00M0
1010
0M00
0011
M000
0110
00M0
,
1001
0M00
1001
000M
0011
M000
0100
0010
,
1M11
0M00
1010
0100
0011
00M0
0101
0010
,
1001
00M0
0101
1000
0011
M000
0101
0010
,
1100
00MM
M00M
M11M
M00M
MM00
0011
0000
1100
0000
0010
0000
0100
0000
0010
0000
,
1001
00M0
1100
M000
0011
000M
0100
0010
,
1110
0000
0000
0000
1001
0000
0100
0000
0011
MM00
00MM
00MM
11MM
0000
0010
0000
,
1100
0000
0101
1000
0011
0000
1100
0M00
,
1010
000M
1000
0100
0011
0001
0100
0000
,
1101
0M0M
1110
M0M0
1001
1001
0110
0010
,
1111
100M
0M10
10M0
0101
10M0
1111
0110
,
1111
01M0
1100
010M
0110
0110
1111
0110
,
1111
00M1
010M
10M0
0101
0101
1111
0110
,
1111
10M0
0101
0011
2M02
0010
3113
0110
,
1001
M010
0011
M100
0101
M100
0201
M010
,
1301
0M10
1010
0M01
0010
0101
1200
001M
,
1300
0100
0011
0110
1100
0120
1001
0M30
,
1101
1110
0111
1011
0111
M000
0100
0010
,
1011
0001
1100
0100
0011
0010
1010
01MM
,
1010
M001
0110
010M
1100
0110
1000
0MM1
,
1001
0M10
1001
01M0
0101
0020
1100
0031
,
1110
0000
1011
0000
0111
0000
1110
0000
2021
0000
0001
0100
3031
0010
0100
0000
,
1001
0M01
1010
10M0
1001
010M
1100
01M0
,
M201
M000
M000
M000
M311
0000
010M
0000
0110
0000
1M00
0000
1010
0000
010M
0000
,
1010
100M
0101
0M10
1100
0110
1MM1
0000
,
1110
1011
1101
0111
1110
0000
0000
0000
,
11MM
0000
0000
M11M
0000
0000
MM11
0000
MMMM
0000
0000
0000
01M0
0000
001M
0000
,
1MM1
0000
0000
1MM1
0000
0000
1MM1
0000
0000
0000
0000
0000
0000
0000
0000
0000
,
1MM1
0000
0000
M11M
0000
0000
1MM1
0000
0000
0000
0000
0000
0000
0000
0000
0000
,
1001
0000
0000
0000
0000
0000
1001
0000
0000
0000
0000
0000
1001
0000
0000
0000
0000
0000
0001
0000
0000
0000
0000
0000
0001
0000
0000
0010
0000
0000
0001
0000
0000
0010
0000
0000
0001
0000
1000
0000
0001
0000
1000
0000
0001
0000
1000
0000
,
0110
0000
M00M
0110
M00M
0000
0100
0000
1010
0000
0000
0000
0011
0000
1000
0000
,
0110
0000
M00M
0110
M00M
0000
0010
0000
0101
0000
0000
0000
0011
0000
10M0
0000
,
0101
0000
1010
0M01
0011
010M
1010
10M0
,
1110
1000
0111
1000
1110
0000
0111
0000
,
1M11
0000
0000
11M0
0000
0000
M110
0000
0011
0000
0000
0000
1010
0000
1000
0000
,
110M
0000
0000
M110
0000
0000
0M11
0000
1100
0000
0000
0000
0010
0000
M001
0000
,
1201
0000
0011
130M
1100
M010
0101
001M
,
1100
0000
0000
0000
0110
0000
0000
0000
0011
M000
0M00
00M0
000M
00M0
0M00
M000
,
1011
0000
0M00
0010
0100
0000
0010
0000
0101
0000
00M0
1000
0100
0000
0001
0000
,
0110
0000
0001
0010
0001
0000
M100
0000
1010
0000
1000
0000
0100
0000
001M
0000
,
M110
0000
0000
11M0
0000
0000
0M11
0000
0110
0000
1100
0000
0101
0000
0010
0000
,
1100
1010
1001
1001
0101
0000
0100
0010
,
1101
00M0
1000
0100
0011
M000
0010
0100
,
1001
0000
00M0
0000
1001
0000
0010
0000
1100
0000
0010
0100
0010
0000
0000
0000
,
1020
000M
1100
1030
0101
0010
0110
0000
,
1101
0000
MMM0
0000
0111
0000
0MMM
0000
1101
0000
0100
0000
0100
1000
0100
0000
,
1101
01M0
1001
010M
1001
0M01
0011
01M0
,
1010
010M
1010
1M00
0110
001M
0101
MM10
,
0011
0110
1100
0110
0011
0020
1001
M130
,
1010
0000
0101
0000
1010
0000
0101
0000
1001
0010
0100
1000
0100
0010
0001
0010
,
1001
1010
0011
1010
1001
0101
1100
M010
,
0101
0101
0011
0110
0110
1010
1100
00M1
,
1100
0110
1100
M010
0101
0110
0010
0000
,
1101
0000
0000
0000
0000
0000
0000
0000
1010
0000
0000
0000
0000
0000
0000
0000
0111
0000
0000
0000
0000
0000
0000
0000
1001
0000
0000
0000
0000
0000
0000
0000
M22M
M00M
M00M
M00M
M00M
M00M
M00M
M00M
M00M
M00M
M00M
M00M
M00M
M00M
M00M
M00M
M00M
M00M
M00M
M00M
M00M
M00M
M00M
M00M
M00M
M00M
M00M
M00M
M00M
M00M
M00M
M00M
,
M00M
M00M
M00M
M00M
M00M
M00M
M00M
M00M
M00M
M00M
M00M
M00M
M00M
M00M
M00M
M00M
M00M
M00M
M00M
M00M
M00M
M00M
M00M
M00M
M00M
M00M
M00M
M00M
M00M
M00M
M00M
M00M
M00M
M00M
M00M
M00M
M00M
M00M
M00M
M00M
M00M
M00M
M00M
M00M
M00M
M00M
M00M
M00M
M00M
M00M
M00M
M00M
M00M
M00M
M00M
M00M
M00M
M00M
M00M
M00M
M00M
M00M
M00M
M00M
,
M00M
M00M
M00M
M00M
M00M
M00M
M00M
M00M
M00M
M00M
M00M
M00M
M00M
M00M
M00M
M00M
M00M
M00M
M00M
M00M
M00M
M00M
M00M
M00M
M00M
M00M
M00M
M00M
M00M
M00M
M00M
M00M
M00M
M00M
M00M
M00M
M00M
M00M
M00M
M00M
M00M
M00M
M00M
M00M
M00M
M00M
M00M
M00M
M00M
M00M
M00M
M00M
M00M
M00M
M00M
M00M
M00M
M00M
M00M
M00M
M00M
M00M
M00M
M00M
,
M00M
M00M
M00M
M00M
M00M
M00M
M00M
M00M
M00M
M00M
M00M
M00M
M00M
M00M
M00M
M00M
M00M
M00M
M00M
M00M
M00M
M00M
M00M
M00M
M00M
M00M
M00M
M00M
M00M
M00M
M00M
M00M
M00M
M00M
M00M
M00M
M00M
M00M
M00M
M00M
M00M
M00M
M00M
M00M
M00M
M00M
M00M
M00M
M00M
M00M
M00M
M00M
M00M
M00M
M00M
M00M
M00M
M00M
M00M
M00M
M00M
M00M
M00M
M00M
,
M33M
0000
0000
0000
;
